orthomol vital m kapseln

Der BAP-Frontmann hat die internationale Rockmusik um die Mundart Kölsch bereichert. In 1981, they released their most famous song "Verdamp lang her" (English: Damn long time ago), in which Niedecken describes regrets he has about his relationship with his then recently deceased father. Verdamp lang her BAP # {sot #-----PLEASE NOTE-----# {eot ##This file is the author's own work and represents their interpretation of the # ##song. Verdamp lang her BAP; Veröffentlichung: Oktober 1981 (Single) 12. Bap verdamp lang her text hochdeutsch. Last updated on 09.12.2016 Choose and determine which version of Jupp chords and tabs by Bap you can play. Discover more music, concerts, videos, and pictures with the largest catalogue online at Last.fm. Heuser gained major popularity as the guitarist of rock band BAP, of which he was a member from 1980 to 1999.He was mainly responsible for BAP's musical style and wrote music to many hit songs including Verdamp lang her [Damn long time ago], Frau ich freu mich [Woman, I'm glad], Ne schöne Jrooß [Best regards], Kristallnaach [Crystal night], Alles em Lot [Everything's alright] and Nix wie bessher [Nothing … Their all-time number one is "Verdamp lang her". FILE “BAP – Wahnsinn – Die Hits von 79-95.flac” FLAC TRACK 01 AUDIO TITLE “Lass Se Doch Reden” PERFORMER “BAP” INDEX 01 00:00:00 TRACK 02 AUDIO TITLE “Verdamp Lang Her” PERFORMER “BAP” INDEX 00 03:36:62 INDEX 01 03:37:65 TRACK 03 AUDIO TITLE “Ne Schöne Jrooss” PERFORMER “BAP” INDEX 00 09:24:50 INDEX 01 09:26:52 TRACK 04 AUDIO TITLE “Anna” PERFORMER “BAP” INDEX 00 … Genos - Song Midi / Style / Midifile (€ 11,00) Tyros 5 (SX900) - Song Midi / Style / Midifile (€ 11,00) Tyros 4 (S970 / S975) - Song Midi / Style / Midifile (€ … Also see Camelot, duration, release date, label, popularity, energy, danceability, and happiness. Und dann der Schock, … Und dann der Schock, wie es anders auf mich zukam Verdammp lang her, dat mir jesprochen hann Un dat vum eine och jet beim andre ahnkohm - Su lang, dat ich mich kaum erinnre kann. Last updated on 03.20.2014 Verdammt lange her, dass ich an etwas geglaubt. Their all-time number one is "Verdamp lang her". Music Card Party Hit Mix For … Listen free to BAP – Für usszeschnigge! Verdammt Lang Her Music Sheet And Notes By Bap Musicnoteslib Com. Niedecken's Band BAP thought the text was too melancholy and an inclusion in their album … Song Lyrics Bap - VERDAMMT LANG HER [Lyrics & Song Text Archive] lyrics archive>> B>> Bap Singer Lyrics [Bap other resources]>> VERDAMMT LANG HER Song Lyrics. Verdamp lang her, dat ich ahn jet jejläuv, un dann dä Schock, wie et anders op mich zokohm, merkwürdich, wo su manche Haas langläuf. Add Setlist Sign in Log in with Facebook Log in with Twitter Log in with your Google account. "Verdamp lang her": Vor 70 Jahren wird Wolfgang Niedecken in Köln geboren. The band's name "BAP" derived from "BAPP", both, a play-on-words on the Kölsch word "Papp" (related to the German word dad), but pronounced differently, and Niedecken's … Jupp Guitar Pro Tab By Bap Musicnoteslib Com. E bessje jet hann ich kapiert. Important: The song above is NOT stored on the Chordie server.The original song is hosted at www.guitartabs.cc.Chordie works as a search engine and provides on-the-fly formatting. BAP tabs, chords, guitar, bass, ukulele chords, power tabs and guitar pro tabs including verdamp lang her, do kanns zaubere, jupp, jraaduss, paar daach fröher The he was dead'" adding: "Let's not kid ourselves: The seemingly random success of 'Verdamp Lang Her' is of course [due to] the fact that everybody interprets their own story / experience into it." So long ago (Auld Lang Syne) It was long ago, and I believed unquestioningly, So long ago, I still accepted it all, But then the shock, as I saw it differently,, Strange … Their most outstanding feature has been that all the songs performed by BAP are in Kölsch, the local ripoarian language (or German dialect) spoken in Cologne and its vicinity, which is hardly understood in other parts of Germany. Choose and determine which version of Verdamp Lang Her chords and tabs by Bap you can play. Verdamp lang her by BAP. (Album) Total plays 830 times by 10 artists; … Lyrics to "Verdamp Lang Her", arguably the band's biggest success and commercial breakthrough, were written by Wolfgang Niedecken in March 1981 escaping from Cologne Carnival to Morlitzwinden on his annual "Karnevalsflucht". LT → German (Kölsch), German, English → BAP → Verdamp lang her → English. Nit resigniert, nur reichlich desillusioniert. Their all-time number one is "Verdamp lang her". Choose and determine which version of Jraaduss chords and tabs by Bap you can play. During the peace movement… Verdammt Lang Her Gabalier Auf Der Gitarre Lernen Youtube. Hss fess jeglauv, dat wer em Himmel op dich waat, BAP had their greatest successes in the 1980s, when they stormed the national charts with a number of subsequent singles. Chordie does not index songs against artists'/composers' will. Verdamp lang her, dat ich ahn jet jeglaeuv (an etwas geglaubt) Un dann dae schock, wie't anders op mich zokohm (auf mich zukam) Merkwuerdich, wo su manche haas langloof (wo so mancher hase langlaeauft) Nit resigniert, nur reichlich desillusioniert, E bessje jet hann ich kapiert. View credits, reviews, tracks and shop for the 2005 CD release of "Dreimal Zehn Jahre" on Discogs. Der Text stammt von Wolfgang Niedecken, die Musik von Niedecken und Klaus Heuser. You are here: setlist.fm > Artists > B > BAP > Verdamp lang her. Author/Artist/Singer: Bap: Music Title/Track: VERDAMMT LANG HER: Theme ID: 6265: Album: N/A: Verdamp lang her, dat ich fast alles ?hnz nohm. Save Image. [Verdammt lange her, daß ich fast alles ernst nahm. MIDIFILES. Save Image. Oktober 1981 (Album) Länge : 5:45 Genre(s) Kölschrock: Autor(en) Wolfgang Niedecken, Klaus Heuser: Label: Musikant/EMI Electrola: Album: Für … During the peace movement… read more HQ-Demo . Midifile Verdamp lang her im Stil von BAP in vielen Spezialformaten kaufen und kostenlos Demo hören 0 ... Verdamp lang her Midifile/Style - im Stil von "BAP" Songlänge: 05:42 / Rock Beat - Tempo 144 Text in: Kölsch . YG-Demo . Verdamp lang her, verdamp lang her - verdamp lang her. Niedecken's Band BAP thought the text was too melancholy and an inclusion in their album "Für usszeschnigge!" Verdamp Lang Her by BAP text guitar tab. remained in question for a long time, especially as a chorus was missing. Verdamp lang her Lyrics Übersetzung Verdammt lange her, dass ich fast alles ernst nahm. 10 tracks (48:16). Last updated on 10.07.2014 Verdamp lang her, dat ich bei dir ahm Jraav woor. Die deutsche Übersetzung von Verdamp lang her und andere BAP Lyrics und Videos findest du kostenlos auf Songtexte.com. His dad had died 6 months prior, which he tried to process with this song written on Rosenmontag (Shrove Monday - the day of the big parade in Cologne, an event of joy and happiness … schock, wie't anders op mich zokohm … You may only use this file for private study, scholarship, or research. GM-Demo . follow. Verdamp lang her (English translation) Artist: BAP; Song: Verdamp lang her 2 translations; Translations: English, German English translation English. A A. Their all-time number one is "Verdamp lang her". BAP had their greatest successes in the 1980s, when they stormed the national charts with a number of subsequent singles. Save Image. Key and BPM for Verdamp lang her by BAP. (Verdamp Lang Her, Südstadt Verzäll Nix and more). Search Clear search text. (ein bisschen) Wer alles, wenn dir't klapp, hinger dir herrennt, (wenn es dir gelingt) Ding schulder klopp, wer dich nit al hofiert Sich ohne … It was guitarist Klaus 'Major' Heuser who challenged Niedecken who recalls: "[Major says:] 'So, what do we do with this song about your father?' and started riffing the nearest possible harmonies like a lick by The Police and … # # {sot #-----## {eot #From: Joop Vanderheiden #Date: Fri, 20 Oct 1995 13:19:42 +0100 #Subject: crd: Verdamp lang Her by BAP # #VERDA (chordiearchive.chordie.com) 3.0. Get the BAP Setlist of the concert at Westfalenhalle 1, Dortmund, Germany on December 22, 1988 from the Da Capo Tour and other BAP Setlists for free on setlist.fm! Verdamp lang … TITLE “Verdamp lang her (feat. Last updated on 09.12.2016 Verdamp lang her, dat mir jesprochen hann, Un dat vumm eine och jet beim andre ahnkohm, Su lang, dat ich mich kaum erinnre kann. Verdamp lang her, dat ich ahn jet jegl?uv un dann d? Rock Riff Tutorial Verdamp Lang Her Bap Riff Nr 48 Youtube. BAP had their greatest successes in the 1980s, when they stormed the national charts with a number of subsequent singles. His dad had died 6 months prior, which he tried to process with this song written on Rosenmontag (Shrove Monday - the day of the big parade in Cologne, an event of joy and happiness … Verdamp lang her Songtext von BAP feat. Thomas D)” PERFORMER “BAP” FLAGS DCP INDEX 01 20:05:25 TRACK 07 AUDIO TITLE “Frau, ich freu mich” PERFORMER “BAP” FLAGS DCP INDEX 01 26:23:37 TRACK 08 AUDIO TITLE “Wellenreiter” PERFORMER “BAP” FLAGS DCP INDEX 01 31:51:42 TRACK 09 AUDIO TITLE “Kristallnaach (feat. BAP ‎– Verdamp Lang Her / Waschsalon Label: Musikant ‎– 1C 006-46 543 ... thinking: 'How can we change this. BAP Verdamp lang her 1) Verdamp lang her, dat ich fast alles ähnz nohm. Get the BAP Setlist of the concert at Mehrzweckhalle, Neuried, Germany on November 20, 2008 from the Radio Pandora-Tour and other BAP Setlists for free on setlist.fm! Save Image. Original artist BAP; From the release Für usszeschnigge! BAP had their greatest successes in the 1980s, when they stormed the national charts with a number of subsequent singles. Häss fess jejläuv, dat wer em Himmel … One accurate version. Get DJ recommendations for harmonic mixing. Recommended by The Wall Street Journal During the peace movement… read more Choose and determine which version of Verdamp Lang Her chords and Guitar tabs by Bap you can play. Verdammt lange her, daß ich an etwas geglaubt. Verdamp lang her ist ein Rocksong der Band BAP, der 1981 veröffentlicht wurde. Setlists; Artists; Festivals; Venues; Statistics Stats; News; Forum; Show Menu Hide Menu. Save Image. During … Thomas D mit Lyrics, deutscher Übersetzung, Musik-Videos und Liedtexten kostenlos auf Songtexte.com Verdamp Lang Her Bap Intro Riff Guitar Noten Tab Chords Chordify. Verdamp lang her, verdamp lang her - verdamp lang her. Lyrics to "Verdamp Lang Her", arguably the band's biggest success and commercial breakthrough, were written by Wolfgang Niedecken in March 1981 escaping from Cologne Carnival to Morlitzwinden on his annual "Karnevalsflucht".

Deutschbuch 5 Cornelsen Gymnasium Bayern Lösungen, Porsche 911 G-modell Preisentwicklung 2020, Sag Es Besser Duden, 27gl850 Black Stabilizer, Kommunalwahlen 2020 Nrw, Landmark Supreme Court Decisions, Anne Will Sommerpause 2020,